FGHRSH 的博客

Please wait...

[WAV无损音乐分享]Michael Jackson(黑胶CD)

CD封面:

01.jpg

CD封底:

76951383650750.jpg


抓取日志:

Exact Audio Copy V1.0 beta 3 from 29. August 2011

EAC 抓取日志文件从2. 十一月 2013, 18:08

Michael Jackson / [冠天下唱片]黑胶CD系列-Michael Jackson

使用驱动器  :PIONEER DVD-RAM 219CHV   Adapter: 5  ID: 0

读取模式      : 可靠Secure
使用精确流     : 是
清空音频缓存    : 否
使用 C2 指示器 : 否

组合读写偏移校正:             : 0
读取 Lead-In 和 Lead-Out : 否
用静音填充抓取中丢失偏移的采样       : 是
去除首尾静音块               : 否
 在CRC 计算中使用了空样本       : 是
已用接口                  : Win NT 及 2000 本地 Win32 接口
间隙处理                  : 没检测到,因此追加到上一曲目

所用输出模式: : 内部 WAV 函数
样本格式    : 44.100 Hz; 16 Bit; 立体声

已抓取 CD 的 TOC

     音轨 |    起始    |    长度    |  起始扇区  |  结束扇区  
    --------------------------------------------
      1 |  0:00.00 |  4:19.69 |      0 |  19493 
      2 |  4:19.69 |  4:15.41 |  19494 |  38659 
      3 |  8:35.35 |  4:55.62 |  38660 |  60846 
      4 | 13:31.22 |  4:18.22 |  60847 |  80218 
      5 | 17:49.44 |  4:01.70 |  80219 |  98363 
      6 | 21:51.39 |  5:47.30 |  98364 | 124418 
      7 | 27:38.69 |  5:59.52 | 124419 | 151395 
      8 | 33:38.46 |  4:09.33 | 151396 | 170103 
      9 | 37:48.04 |  6:26.55 | 170104 | 199108 
     10 | 44:14.59 |  4:25.13 | 199109 | 218996 
     11 | 48:39.72 |  2:44.49 | 218997 | 231345 
     12 | 51:24.46 |  3:32.29 | 231346 | 247274 

音轨  1

     文件名 F:\\无损音乐--\\Michael Jackson\\01 Beat it(敲打).wav

     峰值电平 100.0 %
     抓取速度 3.5 X
     音轨质量 99.9 %
     复制 CRC 0AB5FAB3
     复制成功

音轨  2

     文件名 F:\\无损音乐--\\Michael Jackson\\02 I just can't stop loving you(不能停止愛你).wav

     峰值电平 100.0 %
     抓取速度 3.5 X
     音轨质量 100.0 %
     复制 CRC 24C54EED
     复制成功

音轨  3

     文件名 F:\\无损音乐--\\Michael Jackson\\03 Billie Jean(比利·簡).wav

     峰值电平 100.0 %
     抓取速度 3.7 X
     音轨质量 99.9 %
     复制 CRC ECEEBD48
     复制成功

音轨  4

     文件名 F:\\无损音乐--\\Michael Jackson\\04 Black or white(黑和白).wav

     峰值电平 100.0 %
     抓取速度 4.0 X
     音轨质量 99.9 %
     复制 CRC A509D801
     复制成功

音轨  5

     文件名 F:\\无损音乐--\\Michael Jackson\\05 Remember the time(記住此刻).wav

     峰值电平 100.0 %
     抓取速度 4.5 X
     音轨质量 100.0 %
     复制 CRC 1E529081
     复制成功

音轨  6

     文件名 F:\\无损音乐--\\Michael Jackson\\06 You are not alone(你是孤獨的).wav

     峰值电平 100.0 %
     抓取速度 4.9 X
     音轨质量 100.0 %
     复制 CRC 70BAC312
     复制成功

音轨  7

     文件名 F:\\无损音乐--\\Michael Jackson\\07 Thriller(毛骨悚然).wav

     峰值电平 100.0 %
     抓取速度 5.2 X
     音轨质量 100.0 %
     复制 CRC 398AC073
     复制成功

音轨  8

     文件名 F:\\无损音乐--\\Michael Jackson\\08 Bad(糟糕).wav

     峰值电平 100.0 %
     抓取速度 5.4 X
     音轨质量 100.0 %
     复制 CRC 3855592E
     复制成功

音轨  9

     文件名 F:\\无损音乐--\\Michael Jackson\\09 Heal the world(拯救地球).wav

     峰值电平 100.0 %
     抓取速度 5.7 X
     音轨质量 100.0 %
     复制 CRC 63B7BDBE
     复制成功

音轨 10

     文件名 F:\\无损音乐--\\Michael Jackson\\10 Scream(尖叫).wav

     峰值电平 100.0 %
     抓取速度 6.0 X
     音轨质量 100.0 %
     复制 CRC 561DE5D6
     复制成功

音轨 11

     文件名 F:\\无损音乐--\\Michael Jackson\\11 Ben(本).wav

     峰值电平 100.0 %
     抓取速度 5.5 X
     音轨质量 99.9 %
     复制 CRC 43E88EAA
     复制成功

音轨 12

     文件名 F:\\无损音乐--\\Michael Jackson\\12 Another part of me(另一個我).wav

     峰值电平 100.0 %
     抓取速度 6.1 X
     音轨质量 100.0 %
     复制 CRC 3A248D65
     复制成功

没有错误发生

状态报告结尾


下载地址:

百度网盘 http://pan.baidu.com/s/1wzKsy

CD附带的小册子扫描图:

百度网盘 http://pan.baidu.com/s/17Vdu6

本文标题:[WAV无损音乐分享]Michael Jackson(黑胶CD)
本文链接:https://www.fghrsh.net/post/11.html
作者授权:除特别说明外,本文由 fghrsh 原创编译并授权 FGHRSH 的博客 刊载发布。
版权声明:本文使用「署名-非商业性使用-相同方式共享 4.0 国际」创作共享协议,转载或使用请遵守署名协议。

网友评论1

发表我的评论

Hi,您需要填写昵称和邮箱!

  • 必填项
00:00 / 00:00
顺序播放